[CzechBitch.com/Czechav.com] CzechBitch 5 (aka Terry Sullivan) [2013 г., Teen,Anal]




CzechBitch 5
Подсайт и сайт: CzechBitch.com/Czechav.com
Год производства: 2013 г.
Жанр: Teen,Anal
Продолжительность: 46mn 3s
Доп. информация:

Тех.данные

Format : MPEG-4
Format profile : Base Media
Codec ID : isom
File size : 441 MiB
Duration : 46mn 3s
Overall bit rate : 1 339 Kbps
Writing application : Lavf54.3.100
Video
ID : 1
Format : AVC
Format/Info : Advanced Video Codec
Format profile : High@L3.0
Format settings, CABAC : Yes
Format settings, ReFrames : 5 frames
Codec ID : avc1
Codec ID/Info : Advanced Video Coding
Duration : 46mn 3s
Bit rate : 1 200 Kbps
Width : 704 pixels
Height : 396 pixels
Display aspect ratio : 16:9
Frame rate mode : Constant
Frame rate : 25.000 fps
Color space : YUV
Chroma subsampling : 4:2:0
Bit depth : 8 bits
Scan type : Progressive
Bits/(Pixel*Frame) : 0.172
Stream size : 397 MiB (90%)
Writing library : x264 core 122
Audio
ID : 2
Format : AAC
Format/Info : Advanced Audio Codec
Format profile : LC
Codec ID : 40
Duration : 46mn 3s
Bit rate mode : Constant
Bit rate : 128 Kbps
Channel(s) : 2 channels
Channel positions : Front: L R
Sampling rate : 48.0 KHz
Compression mode : Lossy
Delay relative to video : 80ms
Stream size : 42.1 MiB (10%))

Скриншоты

DOWNLOAD TORRENT
SEEDS: PEERS: UP SPEED: MB/S SIZE: 441 MB
Прибыль каждые 10 минут!