[BrazilTgirls.xxx] Alexia Nazario & Dante - bareback ( Nov 22, 2019) (Louie Damazo, Grooby) [2019 г., Shemale On Male, Hardcore, Bareback,Anilingus, Oral sex, Cum shots, 1080p, SiteRip]




Alexia Nazario & Dante - bareback ( Nov 22, 2019)
Огромное спасибо за помощь в создании раздачи zet709

Год производства: 2019 г.
Страна: Brazil
Жанр: Shemale On Male, Hardcore, Bareback,Anilingus, Oral sex, Cum shots
Продолжительность: 00:27:53
Режиссер: Louie Damazo
Студия: Grooby
В ролях: Alexia Nazario, Dante Rodrigues
Описание: Miss WELL HUNG Nazario is back absolutelly superb and Full of sexual energy commanding a ultra mega erotic TS ON GUY BAREBACK. She ll show that is in her best moment in great shape and so horny. This scene is pure sin and transpiration with na incridile action and soooo impresive cum shots
Тип HD видео: 1080p
Качество видео: SiteRip
Формат видео: MP4
Видео: MPEG4 Video (H264) 1920x1080 30fps 7979kbps [V: English [eng] (h264 constrained baseline L4.0, yuv420p, 1920x1080, 7979 kb/s)]
Аудио: AAC 44100Hz stereo 325kbps [A: SoundHandler [eng] (aac, 44100 Hz, stereo, 325 kb/s)]

MediaInfo

eneral
Format : MPEG-4
Format profile : Base Media
Codec ID : isom
File size : 1.62 GiB
Duration : 27mn 53s
Overall bit rate : 8 312 Kbps
Writing application : Lavf55.33.100
Video
ID : 1
Format : AVC
Format/Info : Advanced Video Codec
Format profile : Baseline@L4.0
Format settings, CABAC : No
Format settings, ReFrames : 3 frames
Codec ID : avc1
Codec ID/Info : Advanced Video Coding
Duration : 27mn 53s
Bit rate : 8 000 Kbps
Width : 1 920 pixels
Height : 1 080 pixels
Display aspect ratio : 16:9
Frame rate mode : Constant
Frame rate : 30.000 fps
Color space : YUV
Chroma subsampling : 4:2:0
Bit depth : 8 bits
Scan type : Progressive
Bits/(Pixel*Frame) : 0.129
Stream size : 1.55 GiB (96%)
Writing library : x264 core 142
Encoding settings : cabac=0 / ref=3 / deblock=1:0:0 / analyse=0x1:0x111 / me=hex / subme=7 / psy=1 / psy_rd=1.00:0.00 / mixed_ref=1 / me_range=16 / chroma_me=1 / trellis=1 / 8x8dct=0 / cqm=0 / deadzone=21,11 / fast_pskip=1 / chroma_qp_offset=-2 / threads=36 / lookahead_threads=6 / sliced_threads=0 / nr=0 / decimate=1 / interlaced=0 / bluray_compat=0 / constrained_intra=0 / bframes=0 / weightp=0 / keyint=250 / keyint_min=25 / scenecut=40 / intra_refresh=0 / rc_lookahead=40 / rc=abr / mbtree=1 / bitrate=8000 / ratetol=1.0 / qcomp=0.60 / qpmin=0 / qpmax=69 / qpstep=4 / ip_ratio=1.40 / aq=1:1.00
Language : English
Audio
ID : 2
Format : AAC
Format/Info : Advanced Audio Codec
Format profile : LC
Codec ID : 40
Duration : 27mn 53s
Duration_LastFrame : -16ms
Bit rate mode : Constant
Bit rate : 326 Kbps
Channel(s) : 2 channels
Channel positions : Front: L R
Sampling rate : 44.1 KHz
Compression mode : Lossy
Stream size : 65.0 MiB (4%)
Language : English

Скринлист

Скриншоты

DOWNLOAD TORRENT
SEEDS: PEERS: UP SPEED: MB/S SIZE: 1.62 GB
Прибыль каждые 10 минут!