Konoha - Sky Angel Blue Vol. 97 [SKYHD-097] (Sky High Entertainment) [uncen] [2013 г., Blowjob, Amateur, Asian, Straight, POV, Petite, SiteRip] [720p]




Konoha - Sky Angel Blue Vol. 97 / スカイエンジェルブルー97巻 / Небесный ангел синий том 97
Год производства: 2013 г.
Страна: Япония
Жанр: Blowjob, Amateur, Asian, Straight, POV, Petite
Продолжительность: 01:58
Цензура: Отсутствует
Язык: Японский
Субтитры: None
Студийный код фильма: SKYHD-097
Студия: Sky High Entertainment
В ролях: Konoha
Mediainfo
Доп. информация: Format : MPEG-4
Format profile : Base Media
Codec ID : isom (isom/mp41)
File size : 4.36 GiB
Duration : 1 h 58 min
Overall bit rate mode : Constant
Overall bit rate : 5 274 kb/s
Encoded date : UTC 2013-04-10 11:31:22
Tagged date : UTC 2013-04-10 11:31:22
FileExtension_Invalid : braw mov mp4 m4v m4a m4b m4p m4r 3ga 3gpa 3gpp 3gp 3gpp2 3g2 k3g jpm jpx mqv ismv isma ismt f4a f4b f4v
Video
ID : 1
Format : AVC
Format/Info : Advanced Video Codec
Format profile : High@L3.1
Format settings : 1 Ref Frames
Format settings, CABAC : No
Format settings, Reference frames : 1 frame
Format settings, GOP : M=1, N=33
Codec ID : avc1
Codec ID/Info : Advanced Video Coding
Duration : 1 h 58 min
Source duration : 1 h 58 min
Bit rate mode : Constant
Bit rate : 5 080 kb/s
Width : 1 280 pixels
Height : 720 pixels
Display aspect ratio : 16:9
Frame rate mode : Constant
Frame rate : 29.970 (30000/1001) FPS
Standard : NTSC
Color space : YUV
Chroma subsampling : 4:2:0
Bit depth : 8 bits
Scan type : Progressive
Bits/(Pixel*Frame) : 0.184
Stream size : 4.02 GiB (92%)
Source stream size : 4.20 GiB (96%)
Language : English
Encoded date : UTC 2013-04-10 11:31:22
Tagged date : UTC 2013-04-10 11:31:22
Color range : Limited
Color primaries : BT.709
Transfer characteristics : BT.709
Matrix coefficients : BT.709
mdhd_Duration : 7089636
Codec configuration box : avcC
Audio
ID : 2
Format : AAC LC
Format/Info : Advanced Audio Codec Low Complexity
Codec ID : mp4a-40-2
Duration : 1 h 58 min
Bit rate mode : Constant
Bit rate : 192 kb/s
Channel(s) : 2 channels
Channel layout : L R
Sampling rate : 48.0 kHz
Frame rate : 46.875 FPS (1024 SPF)
Compression mode : Lossy
Stream size : 162 MiB (4%)
Language : English
Encoded date : UTC 2013-04-10 11:31:22
Tagged date : UTC 2013-04-10 11:31:22
mdhd_Duration : 7114818
Тип HD видео: 720p
Качество видео: SiteRip
Формат видео: AVI
Видео: MPEG4, AVC, 1280x720, 29.970 (30000/1001) FPS, 5 080 kb/s Constant
Аудио: AAC, 48.0 kHz, 2 channels, 192 kb/s

Скриншоты

DOWNLOAD TORRENT
SEEDS: PEERS: UP SPEED: MB/S SIZE: 4.36 GB
Прибыль каждые 10 минут!